Headlines News :
Home » » Legion (2010) R5 LiNE XViD V2 IMAGiNE

Legion (2010) R5 LiNE XViD V2 IMAGiNE

Written By Unknown on Friday, February 26, 2010 | 7:45 AM


Genre : Action | Fantasy | Horror | Thriller
Rating : 5.4/10 4,203 votes
Director : Scott Stewart

http://www.imdb.com/title/tt1038686/

An out-of-the-way diner becomes the unlikely battleground for the survival of the human race. When God loses faith in humankind...





Ripper ...........: IMAGiNE                                        IMDB Rating.......:5.9/10                            
Video Codec.......: XVID                                         Release Date......:19/02/10
Audio Codec.......:MP3                                           Theatre Date......:22/01/10
Audio Bitrate.....:192                                              Runtime.......:1h 35mn
Subtitles.........:NIL                                                 Language..........:ENGLISH
Resolution...... 704 x 288                                  

DETAILS:

Video
ID                               : 0
Format                           : MPEG-4 Visual
Format profile                   : Advanced Simple@L5
Format settings, BVOP            : Yes
Format settings, QPel            : No
Format settings, GMC             : No warppoints
Format settings, Matrix          : Default (H.263)
Muxing mode                      : Packed bitstream
Codec ID                         : XVID
Codec ID/Hint                    : XviD
Duration                         : 1h 35mn
Bit rate                         : 2 043 Kbps
Width                            : 704 pixels
Height                           : 288 pixels
Display aspect ratio             : 2.40:1
Frame rate                       : 25.000 fps
Resolution                       : 8 bits
Colorimetry                      : 4:2:0
Scan type                        : Progressive
Bits/(Pixel*Frame)               : 0.403
Stream size                      : 1.37 GiB (91%)
Writing library                  : XviD 1.2.1 (UTC 2008-12-04)

Audio
ID                               : 1
Format                           : MPEG Audio
Format version                   : Version 1
Format profile                   : Layer 3
Codec ID                         : 55
Codec ID/Hint                    : MP3
Duration                         : 1h 35mn
Bit rate mode                    : Constant
Bit rate                         : 192 Kbps
Channel(s)                       : 2 channels
Sampling rate                    : 48.0 KHz
Stream size                      : 132 MiB (9%)
Alignment                        : Aligned on interleaves
Interleave, duration             : 40 ms (1.00 video frame)
Interleave, preload duration     : 504 ms

http://rapidshare.com/files/355781646/L3gi0n.V2.IMAGiNE.nd-warez.info.part1.rar
http://rapidshare.com/files/355781784/L3gi0n.V2.IMAGiNE.nd-warez.info.part2.rar
http://rapidshare.com/files/355782517/L3gi0n.V2.IMAGiNE.nd-warez.info.part3.rar
http://rapidshare.com/files/355782690/L3gi0n.V2.IMAGiNE.nd-warez.info.part4.rar
http://rapidshare.com/files/355783417/L3gi0n.V2.IMAGiNE.nd-warez.info.part5.rar
http://rapidshare.com/files/355783798/L3gi0n.V2.IMAGiNE.nd-warez.info.part6.rar
http://rapidshare.com/files/355784391/L3gi0n.V2.IMAGiNE.nd-warez.info.part7.rar
http://rapidshare.com/files/355784518/L3gi0n.V2.IMAGiNE.nd-warez.info.part8.rar
http://hotfile.com/dl/30124144/4ee9077/L3gi0n.V2.IMAGiNE.nd-warez.info.part1.rar.html
http://hotfile.com/dl/30124147/55eb42a/L3gi0n.V2.IMAGiNE.nd-warez.info.part2.rar.html
http://hotfile.com/dl/30124392/a3dc201/L3gi0n.V2.IMAGiNE.nd-warez.info.part3.rar.html
http://hotfile.com/dl/30124527/be40c7e/L3gi0n.V2.IMAGiNE.nd-warez.info.part4.rar.html
http://hotfile.com/dl/30124728/6294e47/L3gi0n.V2.IMAGiNE.nd-warez.info.part5.rar.html
http://hotfile.com/dl/30124767/25e461f/L3gi0n.V2.IMAGiNE.nd-warez.info.part6.rar.html
http://hotfile.com/dl/30124820/1b3b331/L3gi0n.V2.IMAGiNE.nd-warez.info.part7.rar.html
http://hotfile.com/dl/30124864/00c8b80/L3gi0n.V2.IMAGiNE.nd-warez.info.part8.rar.html

No Password
Share this article :

0 comments:

Speak up your mind

Tell us what you're thinking... !


free counter Monetize your site!
 

Proudly powered by Blogger
Copyright © 2011. HOT CELEBRITY | MASALA ACTRESS | ACTRESS HOT PHOTOS | CELEBRITY PHOTOS | INDIAN MASALA - All Rights Reserved