Headlines News :
Home » » Alice In Wonderland (2010)

Alice In Wonderland (2010)

Written By Unknown on Friday, April 2, 2010 | 3:57 AM

Quote:
Alice In Wonderland 2010 TS XVID - IMAGiNE
************************************************** ************************************************** ****************

Ripper ...........: IMAGiNE IMDB Rating.......:7.1/10
Video Codec.......: XVID Release Date......:13/03/10
Audio Codec.......:MP3 Theatre Date......:05/03/10
Audio Bitrate.....:128 Runtime.......:1h 40mn
Subtitles.........:NIL Language..........:ENGLISH
Resolution...... 704 x 368 IMDb URL..........:http://www.imdb.com/title/tt1014759/


DETAILS:

Video
ID : 0
Format : MPEG-4 Visual
Format profile : Advanced Simple@L5
Format settings, BVOP : Yes
Format settings, QPel : No
Format settings, GMC : No warppoints
Format settings, Matrix : Default (MPEG)
Muxing mode : Packed bitstream
Codec ID : XVID
Codec ID/Hint : XviD
Duration : 1h 40mn
Bit rate : 1 863 Kbps
Width : 704 pixels
Height : 368 pixels
Display aspect ratio : 1.913
Frame rate : 23.976 fps
Resolution : 24 bits
Colorimetry : 4:2:0
Scan type : Progressive
Bits/(Pixel*Frame) : 0.300
Stream size : 1.31 GiB (93%)
Writing library : XviD 1.2.1 (UTC 2008-12-04)

Audio
ID : 1
Format : MPEG Audio
Format version : Version 1
Format profile : Layer 3
Codec ID : 55
Codec ID/Hint : MP3
Duration : 1h 40mn
Bit rate mode : Constant
Bit rate : 128 Kbps
Channel(s) : 2 channels
Sampling rate : 48.0 KHz
Resolution : 16 bits
Stream size : 91.8 MiB (6%)
Alignment : Split accross interleaves
Interleave, duration : 42 ms (1.00 video frame)
Interleave, preload duration : 500 ms


NOTES:

IMAGiNE bringing you another release.....Alice in wonderland.
Well what can we say ....firstly we're a bit late releasing this,ran into a few problems with both video and audio,but we
carried on and in the end got the result we wanted.
Video had to be rotated and levelled up,need the colours,contrast etc all tweaking so we did what needed to be done.
Audio was pain in the ass.....spent hrs trying to get it right and in sync.
Overall we're really pleased with the outcome .........So enjoy this really nice TS.
Plot Outline :
19-year-old Alice returns to the magical world from her childhood adventure, where she reunites with her old friends and learns of her true destiny: to end the Red Queen's reign of terror.
ScreenShot::::::::::::::::::::::::::::::::::



FOR RAPIDSHARE DOWNLOAD:::::::::::::::::::::::::::
Code:
http://rapidshare.com/files/370609104/Alice_In_Wonderland__2010_warez-ape.com.part1.rar
http://rapidshare.com/files/370609023/Alice_In_Wonderland__2010_warez-ape.com.part2.rar
http://rapidshare.com/files/370609117/Alice_In_Wonderland__2010_warez-ape.com.part3.rar
http://rapidshare.com/files/370609041/Alice_In_Wonderland__2010_warez-ape.com.part4.rar
http://rapidshare.com/files/370610403/Alice_In_Wonderland__2010_warez-ape.com.part5.rar
http://rapidshare.com/files/370610439/Alice_In_Wonderland__2010_warez-ape.com.part6.rar
http://rapidshare.com/files/370610448/Alice_In_Wonderland__2010_warez-ape.com.part7.rar
http://rapidshare.com/files/370608293/Alice_In_Wonderland__2010_warez-ape.com.part8.rar

Share this article :

0 comments:

Speak up your mind

Tell us what you're thinking... !


free counter Monetize your site!
 

Proudly powered by Blogger
Copyright © 2011. HOT CELEBRITY | MASALA ACTRESS | ACTRESS HOT PHOTOS | CELEBRITY PHOTOS | INDIAN MASALA - All Rights Reserved